<?xml version="1.0" standalone="no"?>
<!DOCTYPE svg PUBLIC "-//W3C//DTD SVG 1.1//EN" "http://www.w3.org/Graphics/SVG/1.1/DTD/svg11.dtd" >
<svg xmlns="http://www.w3.org/2000/svg">
<defs>
  <font id="icons" horiz-adv-x="2502.5">
    <font-face font-family="icons"
      units-per-em="1001" ascent="1001"
      descent="0" />
    <missing-glyph horiz-adv-x="0" />
    <glyph glyph-name="arrow"
      unicode="&#xEA01;"
      horiz-adv-x="1001" d="M216.46625 116.3662499999999L600.5608984375 500.5L216.46625 884.5946484375L311.1311328125 979.2986328125L784.5337499999999 505.8569140625L779.1768359375001 500.5L784.53375 495.103984375L311.1311328125 21.7013671875001z" />
    <glyph glyph-name="caret"
      unicode="&#xEA02;"
      horiz-adv-x="1001" d="M500.5 426.5589453125L132.006875 795.0520703125001L21.7013671875 684.7465625L390.1944921875001 316.2534375L500.5 205.9479296874999L610.8055078125001 316.2534375L979.25953125 684.7465625L868.9931250000001 795.0520703125001L500.5 426.5589453125z" />
    <glyph glyph-name="close"
      unicode="&#xEA03;"
      horiz-adv-x="1001" d="M191.988671875 890.5380859375L110.4619140625 809.011328125L418.9732421875001 500.5L110.4619140625 191.988671875L191.988671875 110.4619140625L500.5 418.9732421875L809.011328125 110.4619140625L890.5380859375 191.988671875L582.0267578125 500.5L890.5380859375 809.011328125L809.011328125 890.5380859375L500.5 582.0267578124999L191.988671875 890.5380859375z" />
    <glyph glyph-name="facebook-square"
      unicode="&#xEA04;"
      horiz-adv-x="1001" d="M857.028046875 954.078125H143.971953125A97.206484375 97.206484375 0 0 1 46.921875 857.028046875V143.971953125A97.206484375 97.206484375 0 0 1 143.971953125 46.921875H422.0231640625001V355.433203125H294.3956640625001V500.5H422.0231640625001V611.1965234375C422.0231640625001 737.064453125 496.9417578125 806.7043359375 611.7439453125 806.7043359375A772.1385546875 772.1385546875 0 0 0 724.2000390625001 796.88984375V673.32890625H660.81640625C598.25390625 673.32890625 578.937734375 634.5792578125 578.937734375 594.891171875V500.5H718.2957031249999L696.0078125 355.2767968750001H578.9768359375V46.921875H857.028046875A97.206484375 97.206484375 0 0 1 954.078125 143.971953125V857.028046875A97.206484375 97.206484375 0 0 1 857.028046875 954.078125z" />
    <glyph glyph-name="facebook"
      unicode="&#xEA05;"
      horiz-adv-x="1001" d="M718.764921875 441.84765625L744.8065624999999 611.5875390625H581.9485546875001V721.8148437499999C581.9485546875001 768.2283984375 604.7056640625 813.5080078125 677.6300781250001 813.5080078125H751.6884375000001V957.98828125A900.5871875 900.5871875 0 0 1 620.228984375 969.484140625C486.110625 969.484140625 398.4058203125001 888.152890625 398.4058203125001 740.974609375V611.6266406249999H249.3115625V441.84765625H398.4058203125V31.28125H581.9485546875V441.84765625z" />
    <glyph glyph-name="cross"
      unicode="&#xEA06;"
      horiz-adv-x="1001" d="M942.59790625 58.0454874999999C918.16725 33.61483125 878.552675 33.61483125 854.12201875 58.0454874999999L57.829396625 854.336608125C33.397238875 878.76914125 33.397238875 918.38121375 57.829396625 942.8134340625C82.261554375 967.245654375 121.8742525 967.2455918125 146.30616 942.8134340625L942.59790625 146.521375C967.0285625 122.09071875 967.0285625 82.47614375 942.59790625 58.0454874999999zM57.9239285625 58.0392312499999C33.49170825 82.4698874999999 33.4917708125 122.07820625 57.9239285625 146.5151187500001L854.2158625000001 942.803987125C878.64651875 967.236144875 918.26109375 967.2362074375 942.69175 942.803987125C967.12240625 918.371829375 967.12240625 878.75913125 942.69175 854.32722375L146.400629375 58.0392312499999C121.968721875 33.60231875 82.35602375 33.60231875 57.9239285625 58.0392312499999z" />
    <glyph glyph-name="instagram"
      unicode="&#xEA07;"
      horiz-adv-x="1001" d="M712.6650781249999 973.94171875H288.334921875A261.5894531250001 261.5894531250001 0 0 1 27.05828125 712.665078125V288.3349218750001A261.5894531250001 261.5894531250001 0 0 1 288.334921875 27.0582812500001H712.6650781249999A261.5894531250001 261.5894531250001 0 0 1 973.94171875 288.3349218750001V712.665078125A261.3548437500001 261.3548437500001 0 0 1 712.6650781249999 973.94171875zM890.0688671875 288.3349218750001A177.3646875 177.3646875 0 0 0 712.8214843750001 111.0875390625001H288.334921875A177.3646875 177.3646875 0 0 0 111.0875390625 288.3349218750001V712.665078125A177.599296875 177.599296875 0 0 0 288.334921875 890.0688671875H712.6650781249999A177.4037890625 177.4037890625 0 0 0 889.9124609374999 712.665078125V288.3349218750001zM500.5 744.4937500000001A243.9937500000001 243.9937500000001 0 1 1 744.49375 500.5A243.9937500000001 243.9937500000001 0 0 1 500.5 744.4937500000001zM500.5 340.18359375A159.9644921875 159.9644921875 0 1 0 660.4644921875 500.1480859375A160.00359375 160.00359375 0 0 0 500.5 340.18359375zM692.6841796874999 753.643515625A61.15484375 61.15484375 0 0 1 814.9938671875 753.643515625A61.15484375 61.15484375 0 0 1 692.6841796874999 753.643515625" />
    <glyph glyph-name="linkedin-in"
      unicode="&#xEA08;"
      horiz-adv-x="1001" d="M926.2769140625 404.5838671875V76.4435546875001H743.7508203125001V382.6087890625002C743.7508203125001 459.4824609375 717.3572656250001 511.9958593750001 651.3147265625 511.9958593750001C600.834609375 511.9958593750001 570.8437109375001 476.8044531250001 557.666484375 442.3950781250001C552.8569921875 430.1953906250001 551.6057421875 413.1862109375001 551.6057421875 396.0206250000001V76.4435546875001H369.0014453125001S371.46484375 595.0084765625 369.0014453125001 648.6949218750001H551.6057421875V567.5982812500001C551.2147265625 566.97265625 550.70640625 566.3470312500001 550.3935937499999 565.72140625H551.6057421875V567.5982812500001C575.8487109375 606.6998437500001 619.134140625 662.145859375 716.1060156249999 662.145859375C836.2651171874999 662.145859375 926.2769140625 580.3453906249999 926.2769140625 404.5838671875zM178.0294140625 924.5564453125C115.4669140625 924.5564453125 74.7230859375 881.8575390625 74.7230859375 825.7076953124999C74.7230859375 770.77 114.3720703125 726.7807421875 175.6051171875 726.7807421875H176.817265625C240.474609375 726.7807421875 280.0844921875 770.77 280.0844921875 825.7076953124999C278.87234375 881.8575390625 240.474609375 924.5564453125 178.0294140625 924.5564453125zM85.55421875 76.4435546875001H268.0803125V648.6949218750001H85.55421875zM85.55421875 76.4435546875001" />
    <glyph glyph-name="linkedin"
      unicode="&#xEA09;"
      horiz-adv-x="1001" d="M893.1578906249999 961.42921875H107.6075A67.2937890625 67.2937890625 0 0 1 39.5316796875 894.9565625V106.1216406249999A67.332890625 67.332890625 0 0 1 107.6075 39.6489843749999H893.157890625A67.5283984375 67.5283984375 0 0 1 961.4683203125 106.1216406249999V895.034765625A67.489296875 67.489296875 0 0 1 893.157890625 961.507421875M176.191640625 615.8105078125H312.8125V175.95703125H175.95703125zM244.5802734375 675.9487109375A79.29796875 79.29796875 0 1 0 323.839140625 755.2466796875A79.219765625 79.219765625 0 0 0 244.5802734375 675.9487109375zM825.04296875 175.95703125H688.5003125000001V389.842578125C688.5003125000001 440.674609375 687.4836718750001 506.4825390624999 617.413671875 506.4825390624999C546.2879296875001 506.4825390624999 535.300390625 450.8801171874999 535.300390625 393.518125V175.95703125H398.8359375V615.8105078125H529.9825781249999V555.71140625H531.78125C550.0416796874999 590.2771875 594.6565625 626.798046875 661.1683203125 626.798046875C799.5096484375 626.798046875 825.04296875 535.69140625 825.04296875 417.1745703125z" />
    <glyph glyph-name="debeers"
      unicode="&#xEA0A;"
      horiz-adv-x="847" d="M831.6539 515.86689C750.28723 540.3405700000001 665.87136 574.52395 598.86827 627.6454799999999C497.44079 707.9688 454.18989 839.24687 431.3201200000001 962.5L831.5769 515.86689H831.6539zM0.08024324 515.86689L400.33301 962.5C378.98861 839.0859399999999 333.9721 707.7277899999999 232.78563 627.6454799999999C165.78254 574.6048 81.36667 540.3405700000001 0 515.86689H0.08024324zM400.25293 38.4538L0 485.00991C114.02545 450.02342 232.54462 397.38391 303.39925 297.56188C355.7176700000001 223.8159000000001 384.846 126.8036000000001 400.33301 38.3768L400.25293 38.4538zM431.3201200000001 38.5231C445.44346 116.6858 468.23238 195.1641999999999 507.63174 264.4110699999999C576.96177 386.2204500000001 702.3816800000001 445.27945 831.5769 485.1600599999999L431.3201200000001 38.5231z" />
    <glyph glyph-name="messenger"
      unicode="&#xEA0B;"
      horiz-adv-x="1001" d="M499.5224609375 967.920078125C232.028671875 967.920078125 24.7512890625 771.9821484375 24.7512890625 507.381875C24.7512890625 368.9623437500001 81.48765625 249.3115624999999 173.8846484375 166.7290625A38.4759375 38.4759375 0 0 0 186.670859375 139.67078125L189.2515625 55.2505078125A38.0458203125 38.0458203125 0 0 1 242.4296875 21.6231640625L336.6253515625 63.1490234375A37.615703125 37.615703125 0 0 0 361.9240625 65.0650000000001A517.1572656249999 517.1572656249999 0 0 1 499.5224609375 46.921875C767.01625 46.921875 974.2936328125 242.820703125 974.2936328125 507.460078125S767.01625 967.920078125 499.5224609375 967.920078125zM784.5728515625 613.5817187499999L645.17578125 392.345078125A71.243046875 71.243046875 0 0 0 542.2213671875 373.34171875L431.2902343750001 456.5498437499999A28.5050390625 28.5050390625 0 0 1 396.9981640625001 456.5498437499999L247.121875 342.764296875C227.180078125 327.592890625 200.98203125 351.5621484375 214.4720703125 372.7551953125L353.94734375 593.9918359374999A71.2821484375 71.2821484375 0 0 0 456.9017578125 613.0342968749999L567.832890625 529.826171875A28.5050390625 28.5050390625 0 0 1 602.1249609375001 529.826171875L751.9230468750001 643.5726171875C771.86484375 658.783125 798.062890625 634.8138671874999 784.5728515625 613.5817187499999z" />
    <glyph glyph-name="pinterest"
      unicode="&#xEA0C;"
      horiz-adv-x="1001" d="M878.8467187499999 678.255703125C856.7543359375 869.6578515625 665.3130859374999 965.3784765625 466.5207421874999 943.3251953125C311.9131640624999 921.2328125 157.3055859375 796.0687109375 149.7980859375 611.9785546875C142.4469921875 501.5557421875 179.2415625 420.3808984374999 282.3523828124999 398.444921875C326.5371484374999 479.463359375 267.61109375 494.165546875 260.2599999999999 553.0525C223.6218359375 796.0687109375 532.7978906249999 957.98828125 694.7956640625 788.678515625C812.5695703125 670.9046093750001 739.01953125 317.4655859375 554.8902734375 354.2992578125001C378.1903125 391.0938281250001 643.29890625 671.0219140625001 503.393515625 729.6742578125001C385.6196093750001 773.8199218750001 326.6935546875001 589.7688671875001 378.268515625 501.3993359375001C348.7859375 346.7917578125001 275.1185937500001 199.574375 304.52296875 0.8993359375C392.8925000000001 67.176484375 422.3359765625001 192.4969921875001 451.779453125 317.6219921875001C495.96421875 295.5687109375001 518.0566015625001 266.0861328125001 576.904453125 258.7350390625001C790.4380859375001 243.99375 908.2510937500002 472.2295703125001 878.8076171875 678.412109375z" />
    <glyph glyph-name="search"
      unicode="&#xEA0D;"
      horiz-adv-x="960.96" d="M389.6200308 344.5401960000001C325.6076824 344.5401960000001 271.36109 366.778412 226.880654 411.2588480000001C182.400218 455.739284 160.16 509.985476 160.16 573.9974239999999C160.16 638.0113739999999 182.400218 692.2579664 226.880654 736.7384024C271.36109 781.2188384 325.6076824 803.4590564 389.6200308 803.4590564C453.63318 803.4590564 507.879372 781.2188384 552.3598079999999 736.7384024C596.840244 692.2579664 619.07846 638.0113739999999 619.07846 573.9974239999999C619.07846 546.177632 614.15354 519.250732 604.295692 493.224732C594.4418479999999 467.1987320000001 581.504924 444.9485040000001 565.488924 426.46604L802.033232 189.921732C805.780976 186.173988 807.782976 181.5814 808.0392320000001 176.1399640000001C808.295488 170.698528 806.293488 165.84568 802.033232 161.585424C797.772976 157.3251680000001 793.048256 155.1950400000001 787.86708 155.1950400000001C782.6818999999999 155.1950400000001 777.95718 157.3251680000001 773.696924 161.585424L537.152616 398.129732C517.132616 381.088708 494.109616 367.895528 468.083616 358.554196C442.057616 349.20886 415.903488 344.5401960000001 389.6200308 344.5401960000001zM389.6200308 384.580196C442.750308 384.580196 487.6031159999999 402.8664640000001 524.175652 439.443004C560.7521919999999 476.01554 579.03846 520.868348 579.03846 573.9974239999999C579.03846 627.128502 560.7521919999999 671.9809096 524.175652 708.5562484C487.6031159999999 745.1311868 442.750308 763.4190564 389.6200308 763.4190564C336.4905544 763.4190564 291.6381468 745.1311868 255.062808 708.5562484C218.48827 671.9809096 200.2008008 627.128502 200.2008008 573.9974239999999C200.2008008 520.868348 218.48827 476.01554 255.062808 439.443004C291.6381468 402.8664640000001 336.4905544 384.580196 389.6200308 384.580196z" />
    <glyph glyph-name="thin-arrow"
      unicode="&#xEA0E;"
      horiz-adv-x="1001" d="M215.8015234375 84.8503906249999L631.4511328125001 500.5L215.8015234375 916.149609375L291.69765625 992.0457421875L707.3472656249999 576.3961328125L709.3023437499999 578.3512109375L785.1984765624999 502.376875L783.2824999999999 500.4608984374999L785.1984765624999 498.5058203124999L709.30234375 422.6096875000001L707.347265625 424.5256640625002L291.69765625 8.9542578124999z" />
    <glyph glyph-name="whatsapp"
      unicode="&#xEA10;"
      horiz-adv-x="1001" d="M478.6422265625 952.20125A448.3776171875 448.3776171875 0 0 1 100.88203125 300.5346093750001L53.02171875 69.3270703124999A17.439296875 17.439296875 0 0 1 74.29296875 48.7596484375L301.08203125 102.2896875A448.651328125 448.651328125 0 1 1 478.6422265625 952.20125zM749.02953125 255.6460156250002A352.2659765625 352.2659765625 0 0 0 344.09375 189.3688671875L312.4214843750001 205.0094921875L173.6109375 172.046875L202.8198046875 313.9855468750001L187.4137890625 344.56296875A345.8533203125001 345.8533203125001 0 0 0 149.3288671875 504.0582421875A351.2493359375 351.2493359375 0 1 0 749.02953125 255.6069140625zM718.2175 406.65625L631.41203125 431.5639453125A33.0408203125 33.0408203125 0 0 1 599.2314453125001 423.1962109375001L577.8819921875 401.5730468750001A31.28125 31.28125 0 0 0 543.5508203125 394.2610546875001A463.588125 463.588125 0 0 0 394.1046484375001 526.2288281250001A31.28125 31.28125 0 0 0 396.5289453125001 561.4202343750001L415.1803906250001 585.506796875A32.297890625 32.297890625 0 0 1 419.0905468750001 618.508515625L382.647890625 701.325625A32.37609375 32.37609375 0 0 1 332.05046875 713.05609375A145.92703125 145.92703125 0 0 1 275.5487109375 626.6025390625C269.3315625 565.7605078125 295.5687109375 488.9650390625001 394.2610546875 396.7635546875C508.3594140625 290.3291015625 599.739765625 276.1743359375 659.174140625 290.7592187500001C692.9969921874999 298.8532421875 719.7815625 331.503046875 736.7907421874999 358.6786328125001A32.4151953125 32.4151953125 0 0 1 718.139296875 406.65625z" />
    <glyph glyph-name="youtube"
      unicode="&#xEA11;"
      horiz-adv-x="1001" d="M980.276171875 742.9296875A126.141640625 126.141640625 0 0 1 891.750234375 832.08125C813.5080078125001 853.1569921875 500.5 853.1569921875 500.5 853.1569921875S187.6875 853.1569921875 109.484375 832.08125A125.4769140625 125.4769140625 0 0 1 20.9193359375 742.9296875C0 664.3746484375 0 500.5 0 500.5S0 336.2734375 20.9193359375 258.0703125A125.828828125 125.828828125 0 0 1 109.484375 168.9187499999999C187.6875 147.8430078125 500.5 147.8430078125 500.5 147.8430078125S813.5080078125001 147.8430078125 891.515625 168.9187499999999A125.4769140625 125.4769140625 0 0 1 980.0806640625 258.0703125C1001 336.664453125 1001 500.5 1001 500.5S1001 664.3746484375 980.276171875 742.9296875zM398.0148046875001 351.679453125V649.3596484375L659.9952734375 500.421796875z" />
    <glyph glyph-name="menu"
      unicode="&#xEA12;"
      horiz-adv-x="2502.5" d="M1126.125 1001H2377.375C2446.4815375 1001 2502.5 944.979660625 2502.5 875.875C2502.5 806.7709649999999 2446.4815375 750.75 2377.375 750.75H1126.125V1001zM0 875.875C0 944.979660625 56.020339375 1001 125.125 1001H1376.375V750.75H125.125C56.020339375 750.75 0 806.7709649999999 0 875.875zM1126.125 250.25H2377.375C2446.4815375 250.25 2502.5 194.229035 2502.5 125.125C2502.5 56.020965 2446.4815375 0 2377.375 0H1126.125V250.25zM0 125.125C0 194.229035 56.020339375 250.25 125.125 250.25H1376.375V0H125.125C56.020339375 0 0 56.020965 0 125.125z" />
    <glyph glyph-name="long-arrow"
      unicode="&#xEA13;"
      horiz-adv-x="1251.25" d="M701.9512500000001 60.6918812500001C693.16372125 69.48942 688.22879125 81.416335 688.22879125 93.85000625C688.22879125 106.28492875 693.16372125 118.2105925000001 701.9512500000001 127.0081312499999L1012.886875 437.94375625H109.484375C97.039943 437.94375625 85.105145125 442.887445 76.305604375 451.68748625C67.506063625 460.4862762499999 62.5625 472.42069875 62.5625 484.86563125C62.5625 497.31056375 67.506063625 509.24498625 76.305604375 518.0450275C85.105145125 526.8438175 97.039943 531.78750625 109.484375 531.78750625H1012.886875L701.9512500000001 842.72313125C695.77508 848.45886125 691.2593187499999 855.75364875 688.88194375 863.83922625C686.5033175 871.926055 686.34941375 880.503498875 688.4377499999999 888.669406625C690.52608625 896.8354395 694.77783375 904.287008625 700.745045 910.23907975C706.71225625 916.191276 714.1747112500001 920.42375425 722.346625 922.490443875C730.50352375 924.581032375 739.07208375 924.435136625 747.1539075 922.068147C755.2344800000001 919.701157375 762.52801625 915.20053625 768.2674999999999 909.039506375L1159.2831250000002 518.02375625C1168.07065375 509.2262175 1173.00558375 497.30055375 1173.00558375 484.86563125C1173.00558375 472.43196 1168.07065375 460.505045 1159.2831250000002 451.7075062500001L768.2674999999999 60.6918812500001C759.46996125 51.9056037500001 747.5442975 46.9694225 735.109375 46.9694225C722.6744525 46.9694225 710.74878875 51.9056037500001 701.9512500000001 60.6918812500001z" />
    <glyph glyph-name="bulletpoint"
      unicode="&#xEA14;"
      horiz-adv-x="917.5833333333334" d="M857.9153916666668 761.8085475L458.6214966666667 989.93569675L439.2888500000001 1001L419.9553691666668 989.93569675L20.6364491666667 761.8085475L1.3033854166667 750.7675174999999V250.2791958333333L20.6364491666667 239.2148091666667L419.9078216666667 11.0610499999999L439.2404683333334 0L458.5739491666667 11.0610499999999L857.8486583333333 239.2148091666667L877.1763 250.2558391666666V750.7441608333334L857.8486583333333 761.8085475H857.9153916666668zM272.8717658333333 215.270055L106.4788725 500.4883216666666L272.8959566666667 785.7065883333333H605.7051L772.0979933333333 500.4883216666666L605.7051 215.270055H272.8717658333333zM293.5399133333334 810.0525766666667L439.2888500000001 968.8687341666666L585.0135958333334 810.0525766666667H293.5399133333334zM95.5129175 530.3781816666667L29.4089629166667 734.7023016666667L241.2618541666667 780.1860733333333L95.5129175 530.3781816666667zM78.92159275 501.9272591666666L78.08725925 500.5116783333333L78.92159275 499.0960975L25.8809384166667 335.1373024999999V665.8626975L78.92159275 501.9272591666666zM95.5129175 470.645175L241.2618541666667 220.8372833333332L29.4089629166667 266.3218891666666L95.5129175 470.645175zM585.0135958333334 190.9474233333333L439.2646591666667 32.1320999999999L293.5399133333334 190.9474233333333H585.0135958333334zM783.0397575000001 470.645175L849.1483000000001 266.3218891666666L637.291655 220.8372833333332L783.0397575000001 470.645175zM799.6313325000001 499.0960975L800.4663333333334 500.5116783333333L799.6313325000001 501.9272591666666L852.6684833333334 665.8626975V335.1373024999999L799.6313325000001 499.0960975zM783.0397575000001 530.3781816666667L637.291655 780.1860733333333L849.1483000000001 734.7023016666667L783.0397575000001 530.3781816666667zM790.6924025000001 772.1180133333334L620.6992458333334 808.6369958333333L619.8650791666668 810.0525766666667H618.2201025L501.2924583333333 937.46878225L790.6924025000001 772.1180133333334zM377.2844075000001 937.4923891666668L260.3325725000001 810.0525766666667H258.6875958333334L257.8534291666667 808.6369958333333L87.8611066666667 772.1180133333334L377.2844075000001 937.4923891666668zM87.8611066666667 228.8819866666667L257.8534291666667 192.3630041666667L258.6875958333334 190.9474233333333H260.3325725000001L377.2844075000001 63.5051083333333L87.8611066666667 228.8819866666667zM501.2682675 63.5301333333332L618.1967458333334 190.9474233333333H619.8417225000001L620.6758891666667 192.3630041666667L790.6682116666668 228.8819866666667L501.2682675 63.5301333333332z" />
    <glyph glyph-name="tiktok"
      unicode="&#xEA15;"
      horiz-adv-x="858" d="M598.7505333333332 958.546875H438.0566666666666V309.1469333333333C438.0566666666666 231.8077666666667 376.26875 168.2347333333334 299.40625 168.2347333333334C222.4841666666667 168.2347333333334 160.69625 231.8077666666667 160.69625 309.1469333333333C160.69625 385.1752666666668 221.11375 447.3802666666667 295.2354166666667 450.1211V613.1420533333334C131.8579166666667 610.40122 0 476.3377666666667 0 309.1469333333333C0 140.5880666666667 134.59875 5.2147333333335 300.7766666666667 5.2147333333335C466.895 5.2147333333335 601.4913666666666 142.0180666666667 601.4913666666666 309.1469333333333V642.1596133333333C663.3388666666666 596.8495866666667 737.6702666666666 571.75261 814.3230333333333 570.3016366666667V733.3216366666667C693.4880333333333 737.49247 598.7505333333332 836.9971133333333 598.7505333333332 958.546875z" />
    <glyph glyph-name="play"
      unicode="&#xEA16;"
      horiz-adv-x="800.8" d="M4.1708333333333 3.9172466666666V937.9161792L738.27754 470.9171133333333L4.1708333333333 3.9172466666666z" />
    <glyph glyph-name="twitter"
      unicode="&#xEA0F;"
      horiz-adv-x="1001" d="M788.2875 954.078125H941.815875L606.480875 569.81925L1001 46.921875H692.1289374999999L450.19975 364.11375L173.3606874999999 46.921875H19.76975L378.4405625 457.9575L0 954.078125H316.7539375L535.4098749999999 664.2260625L788.3500625 954.078125zM734.48375 139.013875H819.56875L270.4576875 866.8034375H179.2415625z" />
  </font>
</defs>
</svg>
